Shoping cart:
Empty
Cheap Software
Search by Letter:
A B C D E F G H I J K L M N O P Q R S T U V W X Y Z All programs New Mac

19.04.1988 New York Knicks - Chicago Bulls VHSRip avi Spanish

1$
Buy!Download Size: 1.35 GB

Year: 1988
Sport: Basketball
Participants: Patrick Ewing, Gerald Wilkins, Bill Cartwright, Mark Jackson, Kenny Walker - Michael Jordan, Scottie Pippen, Dave Corzine, Charles Oakley, Horace Grant
Length: 1h 29m
Comment: The Professional (odnogolosy)
Comment language: Spanish
Quality: VHSRip
Format: AVI
Video codec: DivX
Audio Codec: MP3
Video:
ID: 0
Format: MPEG-4 Visual
Format settings, BVOP: No
Format settings, QPel: No
Format settings, GMC: No warppoints
Format settings, Matrix: Default (H.263)
Codec ID: DX50
Codec ID / Hint: DivX 5
Duration: 1h 29mn
Bit rate: 2035 Kbps
Width: 720 pixels
Height: 576 pixels
Display aspect ratio: 5:4
Frame rate: 25.000 fps
Standard: PAL
Resolution: 24 bits
Colorimetry: 4:2:0
Scan type: Progressive
Bits / (Pixel * Frame): 0.196
Stream size: 1.28 GiB (93%)
Writing library: DivX 5.2.1 Alpha (UTC 2004-09-08)
Audio:
ID: 1
Format: MPEG Audio
Format version: Version 1
Format profile: Layer 3
Codec ID: 55
Codec ID / Hint: MP3
Duration: 1h 29mn
Bit rate mode: Variable
Bit rate: 128 Kbps
Channel (s): 2 channels
Sampling rate: 44.1 KHz
Resolution: 16 bits
Stream size: 84.8 MiB (6%)
Alignment: Aligned on interleaves
Interleave, duration: 26 ms (0.65 video frame)
Interleave, preload duration: 498 ms


19.04.1988 New York Knicks - Chicago Bulls VHSRip avi Spanish

1$
Buy!Download Size: 1.35 GB


Customers who bought this program also bought:




Software Store Deal of the Day

2010 SUPER PACK 4

2010 SUPER PACK 4

Unclude: Adobe Acrobat 9.0 Pro Extended (1 dvd), Adobe Photoshop CS5 Extended 12.0 (1 dvd), Autodesk Autocad LT 2011 (1 dvd), Corel WinDVD Pro 2010 10.0.5.291 Multilingual, CorelDRAW Graphics Suite X5 15.0.0.486, DVD Cloner VII 7.10.992, TechSmith Camtasia Studio 7.0.0

Real PriceSaving Deal of the Day View it »
$2960 94.6%229$BUY!
We recommend
Categories
© 2010-2017. All rights reserved.