Shoping cart:
Empty
Cheap Software
Search by Letter:
A B C D E F G H I J K L M N O P Q R S T U V W X Y Z All programs New Mac

Ask Video - Pro Tools 11 100 New Features Explored (2014)

10$
Buy!Download Size: 283.98 MB


Ask Video - Pro Tools 11 100: New Features Explored (2014)
MP4 | AVC 309kbps | English | 1280x720 | 30fps | 2h 25mins | AAC stereo 96kbps | 306 MB
Genre: Video Training

This 40-tutorial course reveals, explores and explains all of the new and noteworthy features introduced in Avid's Pro Tools 11. Get up to speed in a hurry and find out what makes PT11 the best Pro Tools ever. ProTools 11 is one of those stealth releases. It looks kind of the same at first glance, but then you dig in deep and see that it's really quite profound! That's because a lot of its major new features are under the hood. And yet, there are so many enhancements, we brought aboard Protools expert Roy Vargas to show and explain them all in this amazing course! "Exploring Pro Tools 11" dives into the new 64-bit architecture, the offline bouncing, advanced metering, mixing and new plugins. It also examines the improved sends, bussing and video tracks and way too many other new features to list here. So kick back, turn the dial up to "11", and watch as Roy explains them all in great detail helping you understand the immense power of PT11. Be sure to check our huge library of ProTools courses and learn everything there is know about recording, editing, mixing automation and more!

01 Introduction (01:05)
02 Avid Audio Engine (04:24)
03 64 Bit (03:59)
04 Playback Engine (01:52)
05 System Usage Window (02:24)
06 Low Latency Input Buffer (02:29)
07 Maximum Delay Compensation (02:44)
08 Dynamic Plug In Processing (03:48)
09 Video Engine (02:25)
10 Instrument Track Count (01:57)
11 64 Levels of Undo (02:34)
12 Drag and Drop Install (01:24)
13 Pro Tools 10 and 11 Co-install (04:06)
14 Avid Support in the Help Menu (01:34)
15 Offline Bounce (05:58)
16 Bouncing an MP3 with Another File Type (02:46)
17 Bounce from Sends and Track Outputs (06:41)
18 Bouncing MP3 to QuickTime (02:27)
19 Bounce to QuickTime Settings (05:45)
20 The New Workspace Browser (05:51)
21 Browser Menu Enhancements (05:18)
22 Improved Database File Management (06:10)
23 Enhanced Database Searching (04:30)
24 64Bit AAX Plug In Support (02:59)
25 Click II plug In (04:47)
26 Advanced Metering - Part 1 (02:42)
27 Advanced Metering - Part 2 (05:34)
28 Advanced Metering - Part 3 (03:40)
29 Output Meters (03:56)
30 Headroom Indicator (04:19)
31 Track and Send Clip Indicators (02:36)
32 Send Enhancements - Part 1 (03:21)
33 Send Enhancements - Part 2 (01:38)
34 Insert Enhancements (03:32)
35 Restore Previously Shown Tracks (02:21)
36 Add new Track Enhancements (03:54)
37 Transport Fade In (03:27)
38 Enable Automation During Record (04:22)
39 Video Track Improvements (05:04)
40 Video Preferences and Satellite LE (03:49)
41 Conclusion (01:09)

Mediainfo:

Format : MPEG-4
Format profile : Base Media / Version 2
Codec ID : mp42
File size : 16.4 MiB
Duration : 5mn 34s
Overall bit rate : 411 Kbps
Encoded date : UTC 2013-09-23 11:34:37
Tagged date : UTC 2013-09-23 18:34:38
Writing application : Sorenson Squeeze
Comment : Encoded by
Video #2
ID : 2
Format : AVC
Format/Info : Advanced Video Codec
Format profile : Main@L3.1
Format settings, CABAC : Yes
Format settings, ReFrames : 4 frames
Codec ID : avc1
Codec ID/Info : Advanced Video Coding
Duration : 5mn 34s
Bit rate mode : Variable
Bit rate : 309 Kbps
Width : 1 280 pixels
Height : 720 pixels
Display aspect ratio : 16:9
Frame rate mode : Constant
Frame rate : 30.000 fps
Resolution : 24 bits
Colorimetry : 4:2:0
Scan type : Progressive
Bits/(Pixel*Frame) : 0.011
Stream size : 12.3 MiB (75%)
Writing library : x264 core 115
Encoding settings : cabac=1 / ref=3 / deblock=1:0:0 / analyse=0x1:0x111 / me=hex / subme=7 / psy=1 / psy_rd=1.00:0.00 / mixed_ref=1 / me_range=16 / chroma_me=1 / trellis=1 / 8x8dct=0 / cqm=0 / deadzone=21,11 / fast_pskip=1 / chroma_qp_offset=-2 / threads=1 / sliced_threads=0 / nr=0 / decimate=1 / interlaced=0 / bluray_compat=0 / constrained_intra=0 / bframes=3 / b_pyramid=2 / b_adapt=1 / b_bias=0 / direct=1 / weightb=1 / open_gop=0 / weightp=2 / keyint=300 / keyint_min=30 / scenecut=45 / intra_refresh=0 / rc_lookahead=40 / rc=crf / mbtree=1 / crf=23.0 / qcomp=0.60 / qpmin=0 / qpmax=69 / qpstep=4 / ip_ratio=1.40 / aq=1:1.00
Encoded date : UTC 2013-09-23 11:34:37
Tagged date : UTC 2013-09-23 11:34:37
Audio #1
ID : 1
Format : AAC
Format/Info : Advanced Audio Codec
Format version : Version 4
Format profile : LC
Format settings, SBR : No
Codec ID : 40
Duration : 5mn 33s
Bit rate mode : Constant
Bit rate : 96.0 Kbps
Channel(s) : 2 channels
Channel positions : L R
Sampling rate : 44.1 KHz
Resolution : 16 bits
Stream size : 3.81 MiB (23%)
Encoded date : UTC 2013-09-23 11:34:37
Tagged date : UTC 2013-09-23 11:34:37







No mirrors please


Ask Video - Pro Tools 11 100 New Features Explored (2014)

10$
Buy!Download Size: 283.98 MB


Customers who bought this program also bought:


ToonTrack EZmix 2 2.0.9 $15 BUY!


Software Store Deal of the Day

2010 SUPER PACK 4

2010 SUPER PACK 4

Unclude: Adobe Acrobat 9.0 Pro Extended (1 dvd), Adobe Photoshop CS5 Extended 12.0 (1 dvd), Autodesk Autocad LT 2011 (1 dvd), Corel WinDVD Pro 2010 10.0.5.291 Multilingual, CorelDRAW Graphics Suite X5 15.0.0.486, DVD Cloner VII 7.10.992, TechSmith Camtasia Studio 7.0.0

Real PriceSaving Deal of the Day View it »
$2960 94.6%229$BUY!
We recommend
Categories
© 2010-2017. All rights reserved.