Shoping cart:
Empty
Cheap Software
Search by Letter:
A B C D E F G H I J K L M N O P Q R S T U V W X Y Z All programs New Mac

Hal Leonard - Solo Guitar Library - Jake Reichbart Plays Jazz Classics (2013)

10$
Buy!Download Size: 1.41 GB


Hal Leonard - Solo Guitar Library - Jake Reichbart Plays Jazz Classics (2013)
AVI | XviD 1171kbps | English | 720x400 | 29.97fps | 2h 26mins | MP3 stereo 160kbps | 1.43 GB
Genre: Video Training

Ten stylish chord-melody arrangements in standard notation and tablature by Jake Reichbart one of the busiest freelance guitarists in the business. This unique package also includes an instructional DVD featuring him performing and teaching each song to guide you through.

Songs:
Afternoon in Paris (14:08)
Fly Me to the Moon (In Other Words) (14:47)
Footprints (11:17)
Four (15:08)
I Remember You (15:09)
St Thomas (16:21)
So Nice (Summer Samba) (13:42)
Very Early (19:13)
Watch What Happens (12:11)
Yesterdays (13:48)

Mediainfo:

Format : AVI
Format/Info : Audio Video Interleave
File size : 117 MiB
Duration : 12mn 11s
Overall bit rate : 1 343 Kbps
Writing application : VirtualDubMod 1.5.10.2 (build 2540/release)
Writing library : VirtualDubMod build 2540/release
Video #0
ID : 0
Format : MPEG-4 Visual
Format profile : AdvancedSimple@L5
Format settings, BVOP : Yes
Format settings, QPel : No
Format settings, GMC : No warppoints
Format settings, Matrix : Default (MPEG)
Codec ID : XVID
Codec ID/Hint : XviD
Duration : 12mn 11s
Bit rate : 1 171 Kbps
Width : 720 pixels
Height : 400 pixels
Display aspect ratio : 16:9
Frame rate : 29.970 fps
Resolution : 24 bits
Colorimetry : 4:2:0
Scan type : Progressive
Bits/(Pixel*Frame) : 0.136
Stream size : 102 MiB (87%)
Writing library : XviD 64
Audio #1
ID : 1
Format : MPEG Audio
Format version : Version 1
Format profile : Layer 3
Codec ID : 55
Codec ID/Hint : MP3
Duration : 12mn 11s
Bit rate mode : Constant
Bit rate : 160 Kbps
Channel(s) : 2 channels
Sampling rate : 48.0 KHz
Resolution : 16 bits
Stream size : 14.0 MiB (12%)
Alignment : Aligned on interleaves
Interleave, duration : 33 ms (1.00 video frame)
Interleave, preload duration : 504 ms
Writing library : LAME3.99.5






No mirrors please


Hal Leonard - Solo Guitar Library - Jake Reichbart Plays Jazz Classics (2013)

10$
Buy!Download Size: 1.41 GB


Customers who bought this program also bought:




Software Store Deal of the Day

2010 SUPER PACK 4

2010 SUPER PACK 4

Unclude: Adobe Acrobat 9.0 Pro Extended (1 dvd), Adobe Photoshop CS5 Extended 12.0 (1 dvd), Autodesk Autocad LT 2011 (1 dvd), Corel WinDVD Pro 2010 10.0.5.291 Multilingual, CorelDRAW Graphics Suite X5 15.0.0.486, DVD Cloner VII 7.10.992, TechSmith Camtasia Studio 7.0.0

Real PriceSaving Deal of the Day View it »
$2960 94.6%229$BUY!
We recommend
Categories
© 2010-2017. All rights reserved.