Shoping cart:
Empty
Cheap Software
Search by Letter:
A B C D E F G H I J K L M N O P Q R S T U V W X Y Z All programs New Mac

MacProVideo - Logic Pro X 203 Retro Synth 4 Synths in 1 eBook

10$
Buy!Download Size: 206.13 MB


MacProVideo - Logic Pro X 203 Retro Synth: 4 Synths in 1
English | MP4 | 1024 x 728 | AVC ~126 Kbps | 30 fps
AAC | 96 kbps | 44.1 KHz | 2 channels | ~2 hours | 227 MB
Genre: Video Tutorial / Sound Processing (2013)

Retro Synth is a study in simplicity. But don’t be fooled. Behind the virtual faceplate of this new Logic Pro X instrument, there is a powerhouse of synthesis at your fingertips. In this course, our top trainer, Rishabh Rajan, teaches you all about Retro Synth while at the same time, helping you fine-tune your synthesis and sound design skills!

The basic architecture of this new Logic Pro X instrument is built around a classic sounding, analog synthesis engine. But you're also just a click away from turning on the Wavetable, Osc Sync and FM synth engines too! As this course evolves, you learn how to unleash these synthesis techniques to create your own unique, powerful patch library.

So, master Retro Synth’s sound controls, explore its 4 different kinds of synthesis and get deep sound design tips all at the same time right here, right now!

But don’t stop there! Check out all of our Logic Pro X courses and learn every aspect of this powerhouse DAW as you explore the world's largest library of professionally-led Logic Pro X courseware in the Apple universe!

Content:
1. Introduction
2. Subtractive Synthesis Theory
3. Oscillator Section
4. Filter Section - Part 1
5. Filter Section - Part 2
6. Amp Section
7. Effects Section
8. LFO & Vibrato
9. Amp Envelope
10. Filter Envelope
11. Global Settings
12. Controller Settings
13. Glide Section
14. Designing an Analog Synth Bass Sound
15. Oscillator Sync Theory
16. Sync Controls
17. Designing a Lead Synth in Sync Mode
18. Table Mode
19. Designing a Pad in Table Mode
20. FM Synthesis Theory
21. FM Oscillator Controls
22. Electric Piano with FM synthesis
23. Four Synths In One

MediaInfo
General
Complete name : 6. Amp Section.mp4
Format : MPEG-4
Format profile : Base Media / Version 2
Codec ID : mp42
File size : 3.14 MiB
Duration : 1mn 55s
Overall bit rate : 227 Kbps
Encoded date : UTC 2013-08-14 14:50:28
Tagged date : UTC 2013-08-14 21:50:28
Writing application : Sorenson Squeeze
Comment : Encoded by
Video #2
ID : 2
Format : AVC
Format/Info : Advanced Video Codec
Format profile : Main@L3.1
Format settings, CABAC : Yes
Format settings, ReFrames : 4 frames
Codec ID : avc1
Codec ID/Info : Advanced Video Coding
Duration : 1mn 55s
Bit rate mode : Variable
Bit rate : 126 Kbps
Width : 1 280 pixels
Height : 720 pixels
Display aspect ratio : 16:9
Frame rate mode : Constant
Frame rate : 30.000 fps
Color space : YUV
Chroma subsampling : 4:2:0
Bit depth : 8 bits
Scan type : Progressive
Bits/(Pixel*Frame) : 0.005
Stream size : 1.73 MiB (55%)
Writing library : x264 core 115
Encoding settings : cabac=1 / ref=3 / deblock=1:0:0 / analyse=0x1:0x111 / me=hex / subme=7 / psy=1 / psy_rd=1.00:0.00 / mixed_ref=1 / me_range=16 / chroma_me=1 / trellis=1 / 8x8dct=0 / cqm=0 / deadzone=21,11 / fast_pskip=1 / chroma_qp_offset=-2 / threads=1 / sliced_threads=0 / nr=0 / decimate=1 / interlaced=0 / bluray_compat=0 / constrained_intra=0 / bframes=3 / b_pyramid=2 / b_adapt=1 / b_bias=0 / direct=1 / weightb=1 / open_gop=0 / weightp=2 / keyint=300 / keyint_min=30 / scenecut=45 / intra_refresh=0 / rc_lookahead=40 / rc=crf / mbtree=1 / crf=23.0 / qcomp=0.60 / qpmin=0 / qpmax=69 / qpstep=4 / ip_ratio=1.40 / aq=1:1.00
Encoded date : UTC 2013-08-14 14:50:28
Tagged date : UTC 2013-08-14 14:50:28
Audio #1
ID : 1
Format : AAC
Format/Info : Advanced Audio Codec
Format profile : LC
Codec ID : 40
Duration : 1mn 54s
Bit rate mode : Constant
Bit rate : 96.0 Kbps
Channel(s) : 2 channels
Channel positions : Front: L R
Sampling rate : 44.1 KHz
Compression mode : Lossy
Stream size : 1.31 MiB (42%)
Encoded date : UTC 2013-08-14 14:50:28
Tagged date : UTC 2013-08-14 14:50:28
Screenshots








MacProVideo - Logic Pro X 203 Retro Synth 4 Synths in 1 eBook

10$
Buy!Download Size: 206.13 MB


Customers who bought this program also bought:


MacProVideo - Native Instruments Scarbee Rickenbacker Bass $8 BUY!
MacProVideo Analog Mixing Consoles Layout Signal Flow and I O $10 BUY!


Software Store Deal of the Day

2010 SUPER PACK 4

2010 SUPER PACK 4

Unclude: Adobe Acrobat 9.0 Pro Extended (1 dvd), Adobe Photoshop CS5 Extended 12.0 (1 dvd), Autodesk Autocad LT 2011 (1 dvd), Corel WinDVD Pro 2010 10.0.5.291 Multilingual, CorelDRAW Graphics Suite X5 15.0.0.486, DVD Cloner VII 7.10.992, TechSmith Camtasia Studio 7.0.0

Real PriceSaving Deal of the Day View it »
$2960 94.6%229$BUY!
We recommend
Categories
© 2010-2017. All rights reserved.