Shoping cart:
Empty
Cheap Software
Search by Letter:
A B C D E F G H I J K L M N O P Q R S T U V W X Y Z All programs New Mac

Photoshopfreaks DONE - Gabor Richter eBook

1$
Buy!Download Size: 1.42 GB


Photoshopfreaks: DONE - Gabor Richter
German | MP4 + Project Files | 1280 x 720 | AVC ~614 Kbps | 25 fps
AAC | 116 kbps | 44.1 KHz | 2 channels | 160 min | 1.69 GB
Genre: Video Tutorial / Adobe Photoshop

Ein Bild sagt oft mehr als tausend Worte. Doch was passiert wenn man 4 Bilder zu einem spannenden Action Composing zusammen montiert und dem ganzen noch etwas Kinoplakat-Look gibt? Genau das wird euch Gabor mit dem Training”DONE” zeigen.

Bei diesem Training erklärt Gabor Schritt für Schritt wie das Bild „DONE“ entstanden ist. Dieses Training beinhaltet folgende Themenschwerpunkte:
Raw Konvertierung
Retusche und Formanpassung
Hintergrundszenario zusammenbauen
Bildtiefe erzeugen
Bildverschmelzung (Gabors Scratchtechnik)
Dodge and burn an Haut und Kleidung
Scheinwerferlichter erzeugen
Streiflichter am Körper malen
Bildlook
Details gewinnen
Gestalten mit Schriften Kinoplakat Style
uvm.

Das Training hat eine Laufzeit von ca. 160 min und richtet sich hauptsächlich an fortgeschrittene Photoshop Anwender, welche daran interessiert sind ein Bild in diesem Stil zu erstellen.

Dieses Training besitzt kein Menü oder andere Feautures wie man es von anderen Videotrainings kennt (Bsp. Video2brain).Im Training wurde mit Photoshop CS5 gearbeitet. Ca. 90% des Trainings lässt sich aber auch mit älteren PS Versionen durchführen.

MediaInfo
General
Complete name : 15_Streiflichter malen.mp4
Format : MPEG-4
Format profile : Base Media / Version 2
Codec ID : mp42
File size : 36.4 MiB
Duration : 6mn 56s
Overall bit rate mode : Variable
Overall bit rate : 733 Kbps
Encoded date : UTC 2012-05-02 01:10:49
Tagged date : UTC 2012-05-02 01:10:53
Writing application : mp4creator 1.6.1d
Video #1
ID : 1
Format : MPEG-4 Visual
Format profile : Simple@L1
Format settings, BVOP : No
Format settings, QPel : No
Format settings, GMC : No warppoints
Format settings, Matrix : Default (H.263)
Codec ID : 20
Duration : 6mn 56s
Bit rate mode : Variable
Bit rate : 614 Kbps
Maximum bit rate : 6 214 Kbps
Width : 1 280 pixels
Height : 720 pixels
Display aspect ratio : 16:9
Frame rate mode : Constant
Frame rate : 25.000 fps
Color space : YUV
Chroma subsampling : 4:2:0
Bit depth : 8 bits
Scan type : Progressive
Compression mode : Lossy
Bits/(Pixel*Frame) : 0.027
Stream size : 30.5 MiB (84%)
Language : English
Encoded date : UTC 2012-05-02 01:10:49
Tagged date : UTC 2012-05-02 01:10:53
Audio #2
ID : 2
Format : AAC
Format/Info : Advanced Audio Codec
Format profile : LC
Codec ID : 40
Duration : 6mn 56s
Bit rate mode : Variable
Bit rate : 116 Kbps
Maximum bit rate : 151 Kbps
Channel(s) : 2 channels
Channel positions : Front: L R
Sampling rate : 44.1 KHz
Compression mode : Lossy
Stream size : 5.75 MiB (16%)
Language : English
Encoded date : UTC 2012-05-02 01:10:53
Tagged date : UTC 2012-05-02 01:10:53
Material_Duration : 416636
Material_StreamSize : 6034175
Screenshots








Photoshopfreaks DONE - Gabor Richter eBook

1$
Buy!Download Size: 1.42 GB


Customers who bought this program also bought:




Software Store Deal of the Day

2010 SUPER PACK 4

2010 SUPER PACK 4

Unclude: Adobe Acrobat 9.0 Pro Extended (1 dvd), Adobe Photoshop CS5 Extended 12.0 (1 dvd), Autodesk Autocad LT 2011 (1 dvd), Corel WinDVD Pro 2010 10.0.5.291 Multilingual, CorelDRAW Graphics Suite X5 15.0.0.486, DVD Cloner VII 7.10.992, TechSmith Camtasia Studio 7.0.0

Real PriceSaving Deal of the Day View it »
$2960 94.6%229$BUY!
We recommend
Categories
© 2010-2017. All rights reserved.