Shoping cart:
Empty
Cheap Software
Search by Letter:
A B C D E F G H I J K L M N O P Q R S T U V W X Y Z All programs New Mac

Pluralsight - Understanding Distributed Version Control Systems (2014)

10$
Buy!Download Size: 360.29 MB


Pluralsight - Understanding Distributed Version Control Systems (2014)
MP4 | AVC 346kbps | English | 1024x768 | 15fps | 2h 57mins | AAC stereo 103kbps | 381 MB
Genre: Video Training

It's likely that you will already have heard of Distributed Version Control Systems such as Git, but what are they and how do they work? This course sets out to answer the questions of what is going on under the hood, and to demonstrate the new workflow you would need to learn if you started using it. We look at DVCS from the perspective of three different development scenarios - single developer projects, open source projects, and commercial projects. This course includes lots of diagrams that will help you understand the "DAG," which is the way DVCS store their history, and there are demos of using both Mercurial and Git. We also see how you can make use of repository hosting from sites such as BitBucket and GitHub.

───01. A Brief History of Version Control
│ 01. Course Introduction.mp4
│ 02. A Brief History of Version Control.mp4
│ 03. Generation 0 - Working without Source Control.mp4
│ 04. Generation 1 - File Locks.mp4
│ 05. Generation 2 - Merge Before Commit.mp4
│ 06. Generation 3 - DVCS Timeline.mp4
│ 07. DVCS - A Crazy Idea .mp4
│ 08. Module Summary.mp4

├───02. DVCS Basics
│ 01. Module Introduction.mp4
│ 02. DAGs Explained.mp4
│ 03. Version History as a DAG.mp4
│ 04. Cloning.mp4
│ 05. Making Commits.mp4
│ 06. Handling Conflicts.mp4
│ 07. Clones as Branches.mp4
│ 08. Labels as Branches.mp4
│ 09. Module Summary.mp4

├───03. DVCS for Single Developer Projects
│ 01. Module Introduction.mp4
│ 02. Single Developer Projects.mp4
│ 03. Benefits of DVCS.mp4
│ 04. Demo - Introduction.mp4
│ 05. Demo - Creating a Repository.mp4
│ 06. Demo - Ignore Files.mp4
│ 07. Demo - Making a Commit.mp4
│ 08. Demo - Navigating the DAG.mp4
│ 09. Demo - Creating a BitBucket Repository.mp4
│ 10. Demo - Working on a Second Computer.mp4
│ 11. Mercurial and Git Command Recap.mp4
│ 12. Module Summary.mp4

├───04. DVCS for Open Source Projects
│ 01. Module Introduction.mp4
│ 02. Owner and Contributor Requirements.mp4
│ 03. Contribution Workflow.mp4
│ 04. Demo - Creating a Fork.mp4
│ 05. Demo - Pushing Changes and Issuing Pull Requests.mp4
│ 06. Accepting Pull Request Workflow.mp4
│ 07. Three Types of Merging.mp4
│ 08. Demo - Accepting Pull Request.mp4
│ 09. When Contributions are Rejected.mp4
│ 10. Module Summary.mp4

├───05. DVCS for Commercial Projects
│ 01. Module Introduction.mp4
│ 02. Little and Often Commits.mp4
│ 03. Personal Branches.mp4
│ 04. Ad-hoc Teams.mp4
│ 05. Branching Flexibility.mp4
│ 06. Disconnected Working.mp4
│ 07. Eliminate Code Freeze.mp4
│ 08. Automated Deployment.mp4
│ 09. Large Repositories.mp4
│ 10. Large Files.mp4
│ 11. Exclusive Locks.mp4
│ 12. Learning Curve.mp4
│ 13. Server Administration and Software Lifecycle Management.mp4
│ 14. Immutable History.mp4
│ 15. Module Summary.mp4

└───06. Taking it Further
01. Module Introduction.mp4
02. Choosing a DVCS.mp4
03. Working from the Command Line.mp4
04. Graphical Client Apps.mp4
05. IDE Integration.mp4
06. Resources for Mastering Git and Mercurial.mp4

Mediainfo:

Format : MPEG-4
Format profile : Base Media / Version 2
Codec ID : mp42
File size : 19.5 MiB
Duration : 6mn 1s
Overall bit rate : 451 Kbps
Encoded date : UTC 2014-01-27 06:07:50
Tagged date : UTC 2014-01-27 06:08:14
Writing application : HandBrake 0.9.8 2012071700
Video #1
ID : 1
Format : AVC
Format/Info : Advanced Video Codec
Format profile : Baseline@L3.1
Format settings, CABAC : No
Format settings, ReFrames : 2 frames
Codec ID : avc1
Codec ID/Info : Advanced Video Coding
Duration : 6mn 1s
Bit rate mode : Variable
Bit rate : 346 Kbps
Width : 1 024 pixels
Height : 768 pixels
Display aspect ratio : 4:3
Frame rate mode : Variable
Frame rate : 15.000 fps
Minimum frame rate : 7.500 fps
Maximum frame rate : 15.000 fps
Resolution : 24 bits
Colorimetry : 4:2:0
Scan type : Progressive
Bits/(Pixel*Frame) : 0.029
Stream size : 14.9 MiB (77%)
Writing library : x264 core 120
Encoding settings : cabac=0 / ref=2 / deblock=1:0:0 / analyse=0x1:0x111 / me=umh / subme=6 / psy=1 / psy_rd=1.00:0.00 / mixed_ref=1 / me_range=16 / chroma_me=1 / trellis=0 / 8x8dct=0 / cqm=0 / deadzone=21,11 / fast_pskip=1 / chroma_qp_offset=-2 / threads=12 / sliced_threads=0 / nr=0 / decimate=1 / interlaced=0 / bluray_compat=0 / constrained_intra=0 / bframes=0 / weightp=0 / keyint=50 / keyint_min=15 / scenecut=40 / intra_refresh=0 / rc_lookahead=40 / rc=crf / mbtree=1 / crf=20.0 / qcomp=0.60 / qpmin=3 / qpmax=69 / qpstep=4 / ip_ratio=1.40 / aq=1:1.00 / cabac=0 / ref=2 / deblock=1:0:0 / analyse=0x1:0x111 / me=umh / subme=6 / psy=1 / psy_rd=1.00:0.00 / mixed_ref=1 / me_range=16 / chroma_me=1 / trellis=0 / 8x8dct=0 / cqm=0 / deadzone=21,11 / fast_pskip=1 / chroma_qp_offset=-2 / threads=12 / sliced_threads=0 / nr=0 / decimate=1 / interlaced=0 / bluray_compat=0 / constrained_intra=0 / bframes=0 / weightp=0 / keyint=50 / keyint_min=15 / scenecut=40 / intra_refresh=0 / rc_lookahead=40 / rc=crf / mbtree=1 / crf=20.0 / qcomp=0.60 / qpmin=3 / qpmax=69 / qpstep=4 / ip_ratio=1.40 / aq=1:1.00
Encoded date : UTC 2014-01-27 06:07:50
Tagged date : UTC 2014-01-27 06:08:14
colour_primaries : BT.709-5, BT.1361, IEC 61966-2-4, SMPTE RP177
transfer_characteristics : BT.709-5, BT.1361
matrix_coefficients : BT.709-5, BT.1361, IEC 61966-2-4 709, SMPTE RP177
Audio #2
ID : 2
Format : AAC
Format/Info : Advanced Audio Codec
Format version : Version 4
Format profile : LC
Format settings, SBR : No
Codec ID : 40
Duration : 6mn 1s
Bit rate mode : Variable
Bit rate : 103 Kbps
Maximum bit rate : 150 Kbps
Channel(s) : 2 channels
Channel positions : L R
Sampling rate : 44.1 KHz
Resolution : 16 bits
Stream size : 4.45 MiB (23%)
Language : English
Encoded date : UTC 2014-01-27 06:07:50
Tagged date : UTC 2014-01-27 06:08:14







No mirrors please


Pluralsight - Understanding Distributed Version Control Systems (2014)

10$
Buy!Download Size: 360.29 MB


Customers who bought this program also bought:




Software Store Deal of the Day

2010 SUPER PACK 4

2010 SUPER PACK 4

Unclude: Adobe Acrobat 9.0 Pro Extended (1 dvd), Adobe Photoshop CS5 Extended 12.0 (1 dvd), Autodesk Autocad LT 2011 (1 dvd), Corel WinDVD Pro 2010 10.0.5.291 Multilingual, CorelDRAW Graphics Suite X5 15.0.0.486, DVD Cloner VII 7.10.992, TechSmith Camtasia Studio 7.0.0

Real PriceSaving Deal of the Day View it »
$2960 94.6%229$BUY!
We recommend
Categories
© 2010-2017. All rights reserved.